查看: 2204|回复: 37

[新世纪音乐] 【原抓】王莉莉 - 二胡专辑:谢谢你的爱【WAV整轨/百度】

[复制链接]
楼主
发表于 2016-5-20 11:35:23 | 只看该作者 |只看大图 |倒序浏览 |阅读模式







王莉莉 - 二胡专辑:谢谢你的爱

《二胡专辑:谢谢你的爱》拉弦乐器是我国乐器史中较晚出现的一类乐器,按发音体的材料性质可以分为“皮膜类”和“板面类”。皮膜类拉弦乐器常见的有:“二弦”(流行于广东潮州)一带、“京胡”(京剧主要伴奏乐器)、“二胡”(又称“南湖”、令国许遍流行)等。板面类拉弦乐器常见的有:“板胡”(板胡有南北之分,北方板胡琴筒多用椰子殻,南方有用竹筒的)、“南二弦”(为福建“南音”所用,通称“二弦”)。
  
  二胡专辑,中国流行音乐经典,汇集了你怎么舍得我难过、一生何求、用心良苦、谢谢你的爱、耶利亚女郎……

01. 你怎么舍得我难过    [0:05:03.00]
02. 一生何求    [0:05:00.00]
03. 用心良苦    [0:04:27.00]
04. 谢谢你的爱    [0:04:32.00]
05. 耶利亚女郎    [0:04:05.00]
06. 选择    [0:04:51.00]
07. 吻别    [0:05:26.00]
08. 小芳    [0:04:15.00]
09. 领悟    [0:04:48.00]
10. 祝福    [0:04:37.00]
11. 望星空    [0:03:52.00]
12. 我不想说    [0:03:33.00]
13. 中华民谣    [0:04:09.00]
14. 一言难尽    [0:04:12.00]
15. 小城故事    [0:02:41.00]

游客,如果您要查看本帖隐藏内容请回复,如果您想免回复、免金币,直接查看内容,请开通澳门赌场VIP


请点击此处下载

请先注册会员后在进行下载

已注册会员,请先登录后下载

文件名称:提取码.rar 
下载次数:75  文件大小:97 Bytes  售价:5金币 [记录]
下载权限: 不限   VIP会员打折   [购买VIP]   [充值金币]



  1. Exact Audio Copy V1.1 from 23. June 2015

  2. EAC 抓取日志文件从21. 四月 2016, 11:14

  3. 王莉莉 / 二胡专辑:谢谢你的爱

  4. 使用驱动器  :TSSTcorpCDDVDW SH-224DB   Adapter: 1  ID: 0

  5. 读取模式      : 可靠Secure
  6. 使用精确流     : 是
  7. 清空音频缓存    : 是
  8. 使用 C2 指示器 : 否

  9. 读取偏移校正:               : 6
  10. 读取 Lead-In 和 Lead-Out : 否
  11. 用静音填充抓取中丢失偏移的采样       : 是
  12. 去除首尾静音块               : 否
  13. 在CRC 计算中使用了空样本       : 是
  14. 已用接口                  : Win NT 及 2000 本地 Win32 接口

  15. 所用输出模式: : 内部 WAV 函数
  16. 样本格式    : 44.100 Hz; 16 Bit; 立体声


  17. 已抓取 CD 的 TOC

  18.      音轨 |    起始    |    长度    |  起始扇区  |  结束扇区  
  19.     --------------------------------------------
  20.       1 |  0:00.00 |  5:03.00 |      0 |  22724
  21.       2 |  5:03.00 |  5:00.00 |  22725 |  45224
  22.       3 | 10:03.00 |  4:27.00 |  45225 |  65249
  23.       4 | 14:30.00 |  4:32.00 |  65250 |  85649
  24.       5 | 19:02.00 |  4:05.00 |  85650 | 104024
  25.       6 | 23:07.00 |  4:51.00 | 104025 | 125849
  26.       7 | 27:58.00 |  5:26.00 | 125850 | 150299
  27.       8 | 33:24.00 |  4:15.00 | 150300 | 169424
  28.       9 | 37:39.00 |  4:48.00 | 169425 | 191024
  29.      10 | 42:27.00 |  4:37.00 | 191025 | 211799
  30.      11 | 47:04.00 |  3:52.00 | 211800 | 229199
  31.      12 | 50:56.00 |  3:33.00 | 229200 | 245174
  32.      13 | 54:29.00 |  4:09.00 | 245175 | 263849
  33.      14 | 58:38.00 |  4:12.00 | 263850 | 282749
  34.      15 | 62:50.00 |  2:41.00 | 282750 | 294824


  35. 范围状态及错误

  36. 已选择范围

  37.      文件名 F:\纯音乐\王莉莉 - 二胡专辑谢谢你的爱\王莉莉 - 二胡专辑:谢谢你的爱.wav

  38.      峰值电平 91.2 %
  39.      抓取速度 4.6 X
  40.      范围质量 99.9 %
  41.      复制 CRC 026A332D
  42.      复制成功

  43. 没有错误发生


  44. AccurateRip 摘要

  45. 音轨  1  在数据库中不存在
  46. 音轨  2  在数据库中不存在
  47. 音轨  3  在数据库中不存在
  48. 音轨  4  在数据库中不存在
  49. 音轨  5  在数据库中不存在
  50. 音轨  6  在数据库中不存在
  51. 音轨  7  在数据库中不存在
  52. 音轨  8  在数据库中不存在
  53. 音轨  9  在数据库中不存在
  54. 音轨 10  在数据库中不存在
  55. 音轨 11  在数据库中不存在
  56. 音轨 12  在数据库中不存在
  57. 音轨 13  在数据库中不存在
  58. 音轨 14  在数据库中不存在
  59. 音轨 15  在数据库中不存在

  60. 没有任何音轨在 AccurateRip 数据库中有记录

  61. 状态报告结尾

  62. ---- CUETools DB Plugin V2.1.6

  63. [CTDB TOCID: man16O133y1S9kWLjNdTDkZOpEY-] found
  64. Submit result: 请求被中止: 请求已被取消。
  65. Track | CTDB Status
  66.   1   | (2/2) Accurately ripped
  67.   2   | (2/2) Accurately ripped
  68.   3   | (2/2) Accurately ripped
  69.   4   | (2/2) Accurately ripped
  70.   5   | (2/2) Accurately ripped
  71.   6   | (2/2) Accurately ripped
  72.   7   | (2/2) Accurately ripped
  73.   8   | (2/2) Accurately ripped
  74.   9   | (2/2) Accurately ripped
  75. 10   | (2/2) Accurately ripped
  76. 11   | (2/2) Accurately ripped
  77. 12   | (2/2) Accurately ripped
  78. 13   | (1/2) Accurately ripped, or (1/2) differs in 128 samples @01:00:21,01:00:41,01:01:05,01:01:25,01:01:44-01:01:45,01:02:09,01:02:28-01:02:29,01:02:48,01:02:67-01:02:68,01:03:12
  79. 14   | (2/2) Accurately ripped
  80. 15   | (2/2) Accurately ripped


  81. ==== 记录校验日志 5DB584EABBD9AE4000BE79FC3579A3C9987379C58BA8DFDC0F82E35FE25F6702 ====
复制代码

评分

参与人数 2音符 +45 炫币 +45 收起 理由
lsh520 + 15 + 15 赞一个!
秋风 + 30 赞一个!

查看全部评分

沙发
发表于 2016-5-20 14:20:09 | 只看该作者
民间流行歌曲改编的纯音乐有时候听起来别有一番风味,二胡的铉声低沉而柔美丽,吉它的轻盈伴奏让旋律更加动听,非常好听的一张专辑,前排沙发支持!
板凳
发表于 2016-5-20 14:57:02 | 只看该作者
谢谢你的中国流行音乐经典二胡专辑
4#
发表于 2016-5-20 15:04:38 | 只看该作者
谢谢楼组分享
5#
发表于 2016-5-20 16:52:53 | 只看该作者
分享有理,谢谢,收藏了
6#
发表于 2016-5-20 18:34:29 | 只看该作者
感谢精彩分享!!!
7#
发表于 2016-5-20 18:48:59 | 只看该作者
谢谢分享!!!
8#
发表于 2016-5-20 18:50:31 | 只看该作者
想想想想想想想想想想

评分

参与人数 1音符 -15 炫币 -15 收起 理由
lsh520 -15 -15 恶意灌水!警告一次,下次封号处理

查看全部评分

9#
发表于 2016-5-20 19:44:51 | 只看该作者
好听的音乐谢谢分享
10#
发表于 2016-5-21 11:56:55 | 只看该作者
感谢精彩分享!!!
11#
发表于 2016-5-21 20:52:36 | 只看该作者
先谢楼主提供资源!
12#
发表于 2016-5-28 21:42:46 | 只看该作者
喜欢二胡音乐,感谢楼主
13#
发表于 2016-6-22 17:12:28 | 只看该作者
谢谢楼主分享
14#
发表于 2016-7-15 15:08:50 | 只看该作者
二胡所演奏的樂曲蠻能打動人心的 謝謝大大
15#
发表于 2016-8-8 20:10:31 | 只看该作者
欢喜王莉莉的二胡独奏曲,谢谢楼主的分享。祝福您!
您需要登录后才可以回帖 登录 | 立即注册

本版积分规则

|开户注册送现金 ( )皖公网安备 34082502000069号

GMT+8, 2019-2-14 06:15 , Processed in 0.101832 second(s), 34 queries , Gzip On.

Powered by X3.4

© 2004-2017 开户注册送现金

快速回复 开户注册送现金 返回列表